iRegarder Terre maudite En Haute Qualité 1080p, 720p.
Se connecter maintenant! Ça ne prend que 30 secondes pour regarder Le film.
Se connecter

  • Lecteur HD
    Ajouter: 8 09 2019
  • Younetu
    Ajouter: 8 09 2019
  • Dood
    Ajouter: 8 09 2019
  • Fembed
    Ajouter: 8 09 2019
  • Uqload
    Ajouter: 8 09 2019
  • Uptostream
    Ajouter: 8 09 2019
  • Vidoza
    Ajouter: 8 09 2019
  • Rakuten
    Ajouter: 8 09 2019
  • Google
    Ajouter: 8 09 2019
  • Primevideo
    Ajouter: 8 09 2019
Terre maudite

Voir le film Terre maudite en streaming VF ou VOSTFR complet

A la fin du 18e siècle, Lizzy s'installe avec son mari avec la volonté de cultiver une parcelle de terre désolée. Elle semble sentir une présence maligne qui rôde dans la prairie alentour. Lorsqu'un couple de jeunes mariés s'installe à proximité, la paranoïa infectieuse de Lizzy devient plus prégnante... NFO Show/hide text General Unique ID : 119569155530334747475894970727287845363 (0x59F42E844A6E88760C0BD579CDC971F3) Complete name : The.Wind.2018.FRENCH.720p.BluRay.Light.x264.AC3-ACOOL.WwW.Zone-Telechargement.Net.mkv Format : Matroska Format version : Version 4 / Version 2 File size : 1.39 GiB Duration : 1 h 28 min Overall bit rate : 2 247 kb/s Movie name : Terre maudite Encoded date : UTC 2019-09-07 21:40:32 Writing application : mkvmerge v25.0.0 ('Prog Noir') 64-bit Writing library : libebml v1.3.6 + libmatroska v1.4.9 Video ID : 1 Format : AVC Format/Info : Advanced Video Codec Format profile : [email protected] Format settings : CABAC / 4 Ref Frames Format settings, CABAC : Yes Format settings, ReFrames : 4 frames Codec ID : V_MPEG4/ISO/AVC Duration : 1 h 28 min Bit rate : 1 800 kb/s Width : 1 280 pixels Height : 536 pixels Display aspect ratio : 2.40:1 Frame rate mode : Constant Frame rate : 23.976 (24000/1001) FPS Color space : YUV Chroma subsampling : 4:2:0 Bit depth : 8 bits Scan type : Progressive Bits/(Pixel*Frame) : 0.109 Stream size : 1.11 GiB (80%) Writing library : x264 core 155 r2901 7d0ff22 Encoding settings : cabac=1 / ref=1 / deblock=1:0:0 / analyse=0x3:0x113 / me=hex / subme=2 / psy=1 / psy_rd=1.00:0.00 / mixed_ref=0 / me_range=16 / chroma_me=1 / trellis=0 / 8x8dct=1 / cqm=0 / deadzone=21,11 / fast_pskip=1 / chroma_qp_offset=0 / threads=17 / lookahead_threads=4 / sliced_threads=0 / nr=0 / decimate=1 / interlaced=0 / bluray_compat=0 / constrained_intra=0 / bframes=3 / b_pyramid=2 / b_adapt=1 / b_bias=0 / direct=1 / weightb=1 / open_gop=0 / weightp=1 / keyint=240 / keyint_min=24 / scenecut=40 / intra_refresh=0 / rc_lookahead=10 / rc=2pass / mbtree=1 / bitrate=1800 / ratetol=1.0 / qcomp=0.60 / qpmin=0 / qpmax=69 / qpstep=4 / cplxblur=20.0 / qblur=0.5 / vbv_maxrate=62500 / vbv_bufsize=78125 / nal_hrd=none / filler=0 / ip_ratio=1.40 / aq=1:1.00 Default : Yes Forced : No Color range : Limited Color primaries : BT.709 Transfer characteristics : BT.709 Matrix coefficients : BT.709 Audio ID : 2 Format : AC-3 Format/Info : Audio Coding 3 Codec ID : A_AC3 Duration : 1 h 28 min Bit rate mode : Constant Bit rate : 448 kb/s Channel(s) : 6 channels Channel positions : Front: L C R, Side: L R, LFE Sampling rate : 48.0 kHz Frame rate : 31.250 FPS (1536 SPF) Bit depth : 16 bits Compression mode : Lossy Delay relative to video : 8 ms Stream size : 283 MiB (20%) Title : French AC3 5.1 448kb/s Language : French Service kind : Complete Main Default : Yes Forced : No Text #1 ID : 3 Format : UTF-8 Codec ID : S_TEXT/UTF8 Codec ID/Info : UTF-8 Plain Text Duration : 35 min 34 s Bit rate : 0 b/s Count of elements : 4 Stream size : 101 Bytes (0%) Title : FR Forced Language : French Default : Yes Forced : Yes Text #2 ID : 4 Format : UTF-8 Codec ID : S_TEXT/UTF8 Codec ID/Info : UTF-8 Plain Text Duration : 1 h 21 min Bit rate : 17 b/s Count of elements : 406 Stream size : 10.6 KiB (0%) Title : FULL FR Language : French Default : No Forced : No Menu 00:00:00.000 : en:Chapter 01 00:06:00.360 : en:Chapter 02 00:14:10.349 : en:Chapter 03 00:22:42.152 : en:Chapter 04 00:29:47.995 : en:Chapter 05 00:34:52.882 : en:Chapter 06 00:39:32.078 : en:Chapter 07 00:49:07.570 : en:Chapter 08 00:55:58.605 : en:Chapter 09 01:02:06.473 : en:Chapter 10 01:09:50.019 : en:Chapter 11 01:16:58.197 : en:Chapter 12....

  • Genre : Thriller,Fantastique,Western,
  • Acteurs : Caitlin Gerard, Miles Anderson, Julia Goldani Telles
  • Créateur : Emma Tammi
  • Année :
  • Durée : 1h26

Voir le film Terre maudite en streaming VF ou VOSTFR complet

important
Vous souhaitez découvrir en intégralité le film Terre maudite intégralement ? Rendez-vous sur VoirFilms pour y accéder en illimité, gratuitement et sans condition. Tout ce que vous avez à faire, c’est sélectionné votre lecteur pour le visionner en entier en streaming VF ou VOSTFR.
Rappel !
Installez AdBlock pour bloquer les publicités agaçantes des lecteurs (c'est hors de notre contrôle).
Keywords:
voir Terre maudite Streaming complet Terre maudite Streaming gratuit Terre maudite Streaming VF Terre maudite Streaming Français Terre maudite film gratuit complet regarder Terre maudite en Streaming voir Terre maudite en streaming illimité